Skip to main content

Camper Van Beethoven Live at Seattle Center Coliseum on 1988-09-05




01. Intro
02. O Death
03. Tania
04. Eye Of Fatima (Part 1)
05. Eye Of Fatima (Part 2)
06. Joe Stalin's Cadillac
07. Skinhead Stomp
08. Take The Skinheads Bowling
09. One Of These Days
10. Turquoise Jewelry
11. Good Guys And Bad Guys
12. Waka
13. Pictures Of Matchstick Men
14. Mao Reminisces About His Days In Southern China
15. The History Of Utah
16. SP37957
17. No Kruggerrands For David (slight cut towards end due to tape flip)
18. Life Is Grand
Encores
19. Payed Vacation: Greece
20. Sad Lover's Waltz
21. Shut Us Down


Collection CamperVanBeethoven
Band/Artist Camper Van Beethoven
Date September 5, 1988
Venue Seattle Center Coliseum
Location Seattle, WA

Source Sony ECM-939>Sony WM-D6C > MCAS
Lineage Nakamichi CR-7A>PreSonus FireStudio Project>Adobe Audition 3.0>Cdwave editor>FLAC frontend 1.7.1
Taped by JEMS
Transferred by Mike Ziegler


Notes

Robyn Hitchcock set: http://www.archive.org/details/RobynHitchcock1988-09-05.JEMS

Source: Audience
Lineage: ANA(M)>WAV [96kHz/24bit]>WAV [44.1kHz/16bit]>FLAC [Level 8]
Transfer: Nakamichi CR-7A>PreSonus FireStudio Project>Adobe Audition 3.0>Cdwave editor>FLAC frontend 1.7.1
Taping Gear: Sony ECM-939>Sony WM-D6C
Taped By: JEMS
Transferred By: Mike Ziegler

Band Members:
David Lowery - vocals, guitar
Greg Lisher - guitar
Jonathan Segel - violin, keyboards, guitar, vocals
Victor Krummenacher - bass, vocals
Chris Pedersen - drums


Notes:
JEMS master recording. Very good to excellent sounding recording. This show captures Camper touring support of their album Our Beloved Revolutionary, their first major label release after spending years as a well liked but relatively unknown band outside of the indie scene. This is a great show and showcases Camper's eclectic sound ranging everywhere from country to hard rock and all stops in between. Robyn Hitchcock & The Egyptians was also on the bill this night.

files renamed to conform to entree standards, and flac tagged with filenames
SHNTOOL:
length expanded size cdr WAVE problems fmt ratio filename
1:06.21 11691836 B --- -- ---xx flac 0.4873 CVB1988-09-05t01.flac
3:22.00 35632844 B --- -- ---xx flac 0.5810 CVB1988-09-05t02.flac
3:48.49 40334492 B --- -- ---xx flac 0.5745 CVB1988-09-05t03.flac
2:49.18 29853980 B --- -- ---xx flac 0.6063 CVB1988-09-05t04.flac
2:17.72 24336188 B --- -- ---xx flac 0.5928 CVB1988-09-05t05.flac
2:28.48 26220140 B --- -- ---xx flac 0.6151 CVB1988-09-05t06.flac
1:33.04 16414652 B --- -- ---xx flac 0.6064 CVB1988-09-05t07.flac
2:28.66 26262476 B --- -- ---xx flac 0.6226 CVB1988-09-05t08.flac
3:21.21 35505836 B --- -- ---xx flac 0.5780 CVB1988-09-05t09.flac
3:19.06 35117756 B --- -- ---xx flac 0.6279 CVB1988-09-05t10.flac
4:09.47 44034188 B --- -- ---xx flac 0.5899 CVB1988-09-05t11.flac
2:53.24 30573692 B --- -- ---xx flac 0.5970 CVB1988-09-05t12.flac
4:20.50 45981644 B --- -- ---xx flac 0.6073 CVB1988-09-05t13.flac
2:06.74 22400492 B --- -- ---xx flac 0.5627 CVB1988-09-05t14.flac
3:00.64 31902572 B --- -- ---xx flac 0.5922 CVB1988-09-05t15.flac
2:01.40 21438524 B --- -- ---xx flac 0.6052 CVB1988-09-05t16.flac
2:16.07 24006908 B --- -- ---xx flac 0.5686 CVB1988-09-05t17.flac
3:52.06 40938956 B --- -- ---xx flac 0.5543 CVB1988-09-05t18.flac
3:04.16 32495276 B --- -- ---xx flac 0.5414 CVB1988-09-05t19.flac
4:22.00 46216844 B --- -- ---xx flac 0.5095 CVB1988-09-05t20.flac
1:29.10 15723164 B --- -- ---xx flac 0.6161 CVB1988-09-05t21.flac
60:11.43 637082460 B 0.5822 (21 files)

Reviews

There are no reviews yet. Be the first one to write a review.
Download Options
353.7M
FLAC
648.0K
JPEG
35.7M
OGG VORBIS
3.6K
TEXT
34.5K
TORRENT
68.9M
VBR M3U
68.9M
VBR MP3
-
VBR ZIP
Uploaded by
morst
on 2/2/2011
Views
467
Favorites
2
PEOPLE ALSO FOUND
Camper Van Beethoven
by Camper Van Beethoven
130
0
0
Source: soundboard > Sony D5 > TDK MA90 cassette master tape
Camper Van Beethoven
by Camper Van Beethoven
9,929
0
1
( 1 reviews )
Source: Sony ECM-717 > Sharp MD-MT190MD
Camper Van Beethoven
by Camper Van Beethoven
2,655
0
1
( 1 reviews )
Source: Sony ECM-717 > Sharp Minidisc MD-MT190
Camper Van Beethoven
by Camper Van Beethoven
402
0
0
Camper Van Beethoven
by Camper Van Beethoven
327
0
0
Source: audience > Sony WM-D6c > MCAS
Camper Van Beethoven
by Camper Van Beethoven
217
1
0
Source: Neumann KM140's > Beyer MV100 > Sony PCM-M10 > WAV's + Allen & Heath GL2200 > M-Audio Microtrack II > WAVs @48kHz/24bit
Camper Van Beethoven
by Camper Van Beethoven
121
1
0
Source: DPA 4021> Naiant TB/ot > PCM m10 wav
Camper Van Beethoven
by Camper Van Beethoven
6,197
2
0
Source: FM > MCAS > ? > cassette
Camper Van Beethoven
by Camper Van Beethoven
3,869
2
0
Source: Neumann KM-150's (AK-50 Hypercardioid Capsules) > Apogee Minime > digital coaxial > M-Audio Microtrack > 24bit 48kHz wav files
Camper Van Beethoven
by Camper Van Beethoven
136
1
0
Source: Car Stereo > Zoom H2 > WAV